osu file format v14

[General]
AudioFilename: ah.mp3
AudioLeadIn: 1500
PreviewTime: 103509
Countdown: 0
SampleSet: Soft
StackLeniency: 0.3
Mode: 0
LetterboxInBreaks: 0
WidescreenStoryboard: 0

[Editor]
Bookmarks: 1053,7221,14407,28778,40275,51772,63269,77640,89137,100634,103509,123628,135485
DistanceSpacing: 1
BeatDivisor: 4
GridSize: 4
TimelineZoom: 1.1

[Metadata]
Title:HAELEQUIN
TitleUnicode:HAELEQUIN
Artist:orangentle
ArtistUnicode:orangentle
Creator:Gamu
Version:Easy
Source:BMS
Tags:toybot Asahina Momoko alacat bbj0920 SDVX BOF2012 THE OF FIGHTERS 2012 EIN NEUER HEILINGER KRIEG Dissociative Identity Disorder Memoirs Yu_Asahina deadblue238 Mokori m_o_k_o_r_i
BeatmapID:661909
BeatmapSetID:291495

[Difficulty]
HPDrainRate:2
CircleSize:3
OverallDifficulty:2
ApproachRate:3
SliderMultiplier:0.9
SliderTickRate:2

[Events]
//Background and Video events
Video,0,"video.avi",0,0
0,0,"BG.jpg",0,0
//Break Periods
2,51972,58955
//Storyboard Layer 0 (Background)
//Storyboard Layer 1 (Fail)
//Storyboard Layer 2 (Pass)
//Storyboard Layer 3 (Foreground)
//Storyboard Sound Samples

[TimingPoints]
36,359.281437125748,4,2,1,60,1,0
7221,-100,4,2,1,70,0,0
11892,-100,4,2,1,60,0,0
14047,-100,4,2,2,60,0,0
14407,-100,4,2,1,60,0,0
51772,-100,4,2,1,40,0,0
60395,-100,4,2,1,60,0,0
77640,-100,4,2,1,70,0,0
86263,-100,4,2,1,50,0,0
89137,-100,4,2,1,70,0,0
94886,-100,4,2,1,50,0,0
96323,-100,4,2,1,53,0,0
97580,-100,4,2,1,56,0,0
98119,-100,4,2,1,59,0,0
98479,-100,4,2,1,62,0,0
98838,-100,4,2,1,65,0,0
99197,-100,4,2,1,68,0,0
99556,-100,4,2,1,71,0,0
99916,-100,4,2,1,74,0,0
100275,-100,4,2,1,77,0,0
100634,-100,4,2,1,80,0,0
102071,-100,4,2,1,50,0,0
102431,-100,4,2,1,70,0,0
103509,-100,4,2,1,70,0,1
123628,-100,4,2,1,60,0,0
135485,-100,4,2,1,70,0,0

[Colours]
Combo1 : 255,157,255
Combo2 : 181,255,255
Combo3 : 255,202,255
Combo4 : 166,210,255
Combo5 : 255,179,179
Combo6 : 70,163,255

[HitObjects]
64,68,1473,6,0,B|51:116|54:163|69:206,1,135,4|4,1:2|1:2,0:0:0:0:
132,320,2550,2,0,B|180:333|227:330|270:315,1,135,4|4,1:2|1:2,0:0:0:0:
376,236,3628,1,4,1:2:0:0:
400,148,3988,1,4,1:2:0:0:
460,212,4347,6,0,B|484:256|487:305|472:348,1,135,4|4,1:2|1:2,0:0:0:0:
340,312,5425,2,0,B|298:287|249:286|208:304,1,135,4|4,1:2|1:2,0:0:0:0:
88,356,6503,1,4,1:2:0:0:
40,280,6862,1,0,1:0:0:0:
28,192,7221,6,0,L|35:102,1,90,4|8,1:2|1:2,0:0:0:0:
124,80,7940,2,0,L|116:169,1,90,0|8,1:0|1:2,0:0:0:0:
172,240,8658,2,0,B|203:253|237:250|264:236,1,90,0|8,1:0|1:2,0:0:0:0:
304,160,9377,2,0,B|335:147|369:150|396:164,1,90,0|8,1:0|1:2,0:0:0:0:
440,236,10095,6,0,B|447:286|410:332|356:338|318:313,2,180,0|0|4,1:0|1:0|1:2,0:0:0:0:
391,161,11892,6,0,B|352:116|380:64|380:64|336:64|312:40,1,180,2|0,1:2|0:0,0:0:0:0:
224,24,12970,1,2,0:0:0:0:
144,68,13329,2,0,B|110:81|74:78|44:64,2,90,2|2|6,0:0|0:0|0:0,0:0:0:0:
220,112,14407,6,0,B|241:163|236:216|212:260,2,135,4|0|8,1:2|1:0|0:0,0:0:0:0:
300,72,15844,2,0,B|345:46|399:53|435:83,1,135,0|0,1:0|1:0,0:0:0:0:
496,196,16922,6,0,L|504:300,1,90,10|6,0:0|1:2,0:0:0:0:
416,264,17640,2,0,L|424:368,2,90,8|2|10,0:0|0:0|0:0,0:0:0:0:
332,232,18718,2,0,B|298:224|264:228|235:240,1,90,2|8,1:2|0:0,0:0:0:0:
172,292,19437,2,0,L|80:284,1,90,2|8,0:0|0:0,0:0:0:0:
20,220,20155,5,2,1:2:0:0:
8,132,20515,1,8,0:0:0:0:
40,48,20874,2,0,B|70:34|103:32|133:40,1,90,2|10,0:0|1:2,0:0:0:0:
200,92,21592,1,2,1:2:0:0:
280,132,21952,2,0,B|294:100|290:66|273:39,2,90,8|2|10,0:0|0:0|0:0,0:0:0:0:
204,184,23030,6,0,L|120:180,2,67.5,6|6|6,1:2|1:2|1:2,0:0:0:0:
340,192,24107,1,2,1:2:0:0:
376,276,24467,2,0,B|374:311|380:344,2,67.5,6|0|6,1:2|1:0|1:2,0:0:0:0:
412,144,25544,1,0,1:0:0:0:
344,84,25904,6,0,B|313:73|280:74|251:84,1,90,6|8,1:2|0:0,0:0:0:0:
188,140,26622,2,0,B|177:171|178:204|188:233,1,90,2|10,0:0|0:0,0:0:0:0:
220,312,27341,1,6,1:2:0:0:
272,240,27700,2,0,B|316:224|360:240|360:240|404:264|448:240,1,180,6|0,1:2|0:0,0:0:0:0:
404,160,28778,5,6,1:2:0:0:
388,72,29137,1,8,1:2:0:0:
320,128,29497,2,0,B|287:138|253:139|222:132,1,90,2|10,1:2|1:2,0:0:0:0:
148,104,30215,2,0,B|140:60|156:8,2,90,2|8|0,1:2|1:2|1:0,0:0:0:0:
168,192,31293,1,10,1:2:0:0:
244,240,31652,5,6,1:2:0:0:
420,192,32371,1,6,1:2:0:0:
292,316,33089,1,6,1:2:0:0:
344,144,33808,1,4,1:2:0:0:
256,124,34167,1,2,1:2:0:0:
172,160,34527,6,0,B|159:193|162:227|176:256,1,90,6|8,1:2|1:2,0:0:0:0:
212,328,35245,2,0,B|242:339|273:338|300:328,1,90,2|10,1:2|1:2,0:0:0:0:
372,276,35964,2,0,L|464:280,1,90,2|8,1:2|1:2,0:0:0:0:
488,192,36682,2,0,L|398:188,1,90,0|8,1:0|1:2,0:0:0:0:
308,184,37401,5,6,1:2:0:0:
152,96,38119,1,6,1:2:0:0:
60,256,38838,2,0,B|58:289|75:319|101:335,1,90,6|6,1:2|1:2,0:0:0:0:
190,339,39556,2,0,B|219:323|235:294|237:263,1,90,0|0,1:0|1:2,0:0:0:0:
204,184,40275,6,0,B|179:138|190:83|227:47|271:36,1,180,4|2,1:2|0:0,0:0:0:0:
352,64,41353,1,0,0:0:0:0:
440,72,41712,2,0,B|435:122|394:159|343:163|305:141,1,180,2|2,0:0|0:0,0:0:0:0:
288,228,42790,1,0,0:0:0:0:
256,312,43149,6,0,B|226:322|195:323|167:316,1,90,2|0,1:2|0:0,0:0:0:0:
80,288,43868,1,2,0:0:0:0:
40,208,44227,1,2,0:0:0:0:
28,120,44586,2,0,L|36:28,1,90,4|4,1:2|1:2,0:0:0:0:
124,16,45305,2,0,L|116:105,1,90,4|4,1:2|1:2,0:0:0:0:
160,184,46024,6,0,B|218:212|283:203|331:169,2,180,6|0|2,1:2|1:0|1:2,0:0:0:0:
76,220,47820,1,8,1:2:0:0:
28,144,48179,2,0,B|20:100|20:100|36:52,1,90,2|10,1:2|1:2,0:0:0:0:
120,32,48898,6,0,L|216:28,1,90,2|8,1:2|1:2,0:0:0:0:
272,92,49616,2,0,L|368:88,2,90,2|8|2,1:2|1:2|1:2,0:0:0:0:
204,152,50694,1,8,1:2:0:0:
164,232,51053,2,0,B|155:264|161:297|179:322,1,90,2|8,1:2|1:2,0:0:0:0:
256,364,51772,5,6,1:2:0:0:
256,280,60395,5,4,1:2:0:0:
256,104,61113,1,4,1:2:0:0:
164,260,61832,2,0,B|131:273|97:270|68:256,1,90,4|0,1:2|1:0,0:0:0:0:
24,188,62550,2,0,L|20:96,1,90,4|0,1:2|1:0,0:0:0:0:
72,28,63269,6,0,B|116:24|116:24|160:36,1,90,4|8,1:2|1:2,0:0:0:0:
224,100,63988,2,0,B|228:144|228:144|216:188,1,90,0|8,1:0|1:2,0:0:0:0:
164,260,64706,2,0,B|160:304|160:304|172:348,1,90,0|8,1:0|1:2,0:0:0:0:
244,296,65425,2,0,B|286:284|286:284|332:288,1,90,0|8,1:0|1:2,0:0:0:0:
420,296,66143,5,2,1:0:0:0:
476,224,66503,1,8,1:2:0:0:
432,144,66862,2,0,B|424:112|428:79|440:51,1,90,0|8,1:0|1:2,0:0:0:0:
348,64,67580,2,0,B|316:72|283:68|255:56,1,90,0|8,1:0|1:2,0:0:0:0:
172,32,68299,2,0,B|140:24|107:28|79:40,1,90,2|8,1:2|1:2,0:0:0:0:
32,112,69018,6,0,L|48:256,1,135,4|4,1:2|1:2,0:0:0:0:
212,312,70275,2,0,B|244:302|276:301|305:308,1,90,4|0,1:2|1:0,0:0:0:0:
384,340,70994,2,0,L|396:248,1,90,4|4,1:2|1:2,0:0:0:0:
408,160,71712,6,0,B|444:118|438:55|394:17|345:15,1,180,6|6,1:2|1:2,0:0:0:0:
340,104,72790,2,0,L|244:100,1,90,2|6,1:2|1:2,0:0:0:0:
159,96,73509,2,0,B|149:126|150:157|160:184,1,90,2|6,1:2|1:2,0:0:0:0:
236,232,74227,2,0,B|209:275|152:286|112:258,1,135,2|6,1:2|1:2,0:0:0:0:
36,224,75125,6,0,L|28:313,2,90,2|0|0,1:2|1:0|1:0,0:0:0:0:
104,164,76203,2,0,L|96:72,1,90,6|0,1:2|0:0,0:0:0:0:
172,28,76922,2,0,B|204:36|237:32|265:20,1,90,2|0,0:2|0:0,0:0:0:0:
344,56,77640,5,6,1:2:0:0:
432,32,78000,1,8,0:0:0:0:
484,108,78359,2,0,L|480:204,1,90,2|8,0:0|0:0,0:0:0:0:
472,288,79077,2,0,B|442:305|408:303|380:288,1,90,2|8,0:0|0:0,0:0:0:0:
300,256,79796,2,0,B|252:238|199:261|177:310|188:354,1,180,2|6,0:0|1:2,0:0:0:0:
100,324,80874,5,8,0:0:0:0:
36,260,81233,2,0,B|24:214|32:168,1,90,2|8,0:0|0:0,0:0:0:0:
52,84,81952,1,6,1:2:0:0:
136,116,82311,1,10,0:0:0:0:
224,92,82670,2,0,L|216:0,2,90,2|10|6,1:2|1:2|1:2,0:0:0:0:
232,180,83748,5,8,0:0:0:0:
148,208,84107,2,0,B|160:241|188:262|220:268,1,90,2|8,0:0|0:0,0:0:0:0:
300,244,84826,2,0,L|400:236,1,90,2|8,0:0|0:0,0:0:0:0:
360,152,85544,2,0,L|449:144,1,90,2|8,0:0|0:0,0:0:0:0:
496,224,86263,6,0,B|503:290|449:347|383:344,2,180,2|0|2,1:2|1:0|1:2,0:0:0:0:
476,136,88059,1,8,1:2:0:0:
412,72,88419,2,0,B|381:59|347:62|320:76,1,90,0|8,1:0|1:2,0:0:0:0:
256,132,89137,6,0,L|160:128,1,90,6|8,1:2|1:2,0:0:0:0:
76,128,89856,2,0,B|61:158|60:192|72:220,1,90,2|8,1:2|1:2,0:0:0:0:
116,292,90574,1,2,1:2:0:0:
204,312,90934,1,8,1:2:0:0:
284,272,91293,2,0,B|297:302|294:334|280:360,2,90,2|8|6,1:2|1:2|1:2,0:0:0:0:
228,200,92371,5,8,1:2:0:0:
168,136,92730,2,0,B|155:106|158:74|172:48,1,90,2|8,1:2|1:2,0:0:0:0:
248,96,93449,2,0,L|344:92,1,90,2|8,1:2|1:2,0:0:0:0:
428,88,94167,1,2,1:2:0:0:
488,156,94527,1,8,1:2:0:0:
504,244,94886,6,0,B|480:317|380:343|313:264|335:191,1,270,6|0,1:2|1:0,0:0:0:0:
308,108,96323,2,0,B|232:136|240:236|240:236|192:272|124:244,1,270,6|0,1:2|1:0,0:0:0:0:
96,224,97580,6,0,B|71:179|69:128|84:84,1,135,6|4,1:2|1:2,0:0:0:0:
152,36,98479,2,0,L|252:28,1,90,6|4,1:2|1:2,0:0:0:0:
232,120,99197,2,0,L|332:112,1,90,6|4,1:2|1:2,0:0:0:0:
312,204,99916,2,0,L|412:196,1,90,6|4,1:2|1:2,0:0:0:0:
392,288,100634,6,0,B|484:298|553:189|487:87|391:81|339:130,1,360,6|0,1:2|1:2,0:0:0:0:
292,200,102431,2,0,L|300:292,2,90,4|4|4,1:2|1:2|1:2,0:0:0:0:
220,144,103509,6,0,B|171:134|124:148,1,90,6|8,1:2|1:2,0:0:0:0:
60,200,104227,2,0,B|50:249|64:296,1,90,2|8,1:2|1:2,0:0:0:0:
132,348,104946,1,6,1:2:0:0:
220,324,105305,2,0,L|316:328,2,90,10|0|10,1:2|1:0|1:2,0:0:0:0:
180,244,106383,6,0,B|175:212|181:181|196:155,1,90,6|8,1:2|1:2,0:0:0:0:
252,88,107101,2,0,B|284:83|315:89|341:104,1,90,2|8,1:2|1:2,0:0:0:0:
400,168,107820,1,6,1:2:0:0:
476,124,108179,1,8,1:2:0:0:
476,212,108538,2,0,L|468:304,1,90,2|8,1:2|1:2,0:0:0:0:
392,352,109257,6,0,B|360:360|329:357|301:344,1,90,6|8,1:2|1:2,0:0:0:0:
256,268,109976,1,2,1:2:0:0:
184,324,110335,1,8,1:2:0:0:
100,296,110694,1,6,1:2:0:0:
60,216,111053,2,0,B|30:231|13:261|12:292,2,90,8|2|8,1:2|1:2|1:2,0:0:0:0:
144,180,112131,6,0,L|132:80,1,90,6|8,1:2|1:2,0:0:0:0:
216,60,112850,2,0,L|226:149,1,90,6|8,1:2|1:2,0:0:0:0:
268,228,113568,2,0,B|298:242|331:244|361:236,1,90,6|8,1:2|1:2,0:0:0:0:
436,196,114287,1,6,1:2:0:0:
464,112,114646,1,8,1:2:0:0:
412,40,115006,6,0,B|379:30|345:29|314:36,1,90,6|8,1:2|1:2,0:0:0:0:
244,80,115724,2,0,B|211:90|177:91|146:84,1,90,2|8,1:2|1:2,0:0:0:0:
68,68,116443,2,0,L|64:168,1,90,6|8,1:2|1:2,0:0:0:0:
88,244,117161,2,0,L|84:344,1,90,2|8,1:2|1:2,0:0:0:0:
172,356,117880,6,0,L|276:348,1,90,6|8,1:2|1:2,0:0:0:0:
280,260,118598,2,0,L|384:252,1,90,6|8,1:2|1:2,0:0:0:0:
460,244,119317,1,6,1:2:0:0:
408,172,119676,1,8,1:2:0:0:
372,92,120035,2,0,L|380:0,1,90,2|8,1:2|1:2,0:0:0:0:
292,24,120754,6,0,B|303:74|271:123|220:137|178:121,1,180,6|0,1:2|1:0,0:0:0:0:
96,96,121832,1,8,1:2:0:0:
31,159,122191,2,0,B|76:195|119:182|119:182|112:224|128:268,1,180,6|0,1:2|1:0,0:0:0:0:
180,336,123269,1,8,1:2:0:0:
268,316,123628,6,0,L|404:324,2,135,6|2|8,1:2|0:0|1:2,0:0:0:0:
296,232,125065,2,0,L|432:240,2,135,2|2|8,1:2|0:0|1:2,0:0:0:0:
248,156,126503,6,0,B|236:85|256:16,2,135,2|2|8,1:2|0:0|1:2,0:0:0:0:
176,212,127940,2,0,B|188:283|168:352,2,135,2|2|8,1:2|0:0|1:2,0:0:0:0:
116,144,129377,6,0,L|12:136,1,90,6|8,1:2|1:2,0:0:0:0:
28,48,130095,2,0,L|118:54,1,90,2|8,1:2|1:2,0:0:0:0:
196,100,130814,2,0,B|228:108|261:104|289:92,1,90,6|8,1:2|1:2,0:0:0:0:
368,56,131533,2,0,L|384:192,1,135,0|4,1:0|1:2,0:0:0:0:
256,192,132251,12,4,135485,1:2:0:0:
